<?xml version="1.0" standalone="no"?>
<!DOCTYPE svg PUBLIC "-//W3C//DTD SVG 1.1//EN" "http://www.w3.org/Graphics/SVG/1.1/DTD/svg11.dtd" >
<svg xmlns="http://www.w3.org/2000/svg" xmlns:xlink="http://www.w3.org/1999/xlink" version="1.1">
<metadata></metadata>
<defs>
<font id="antonioregular" horiz-adv-x="802" >
<font-face units-per-em="2048" ascent="1638" descent="-410" />
<missing-glyph horiz-adv-x="452" />
<glyph horiz-adv-x="0" />
<glyph horiz-adv-x="682" />
<glyph unicode=" "  horiz-adv-x="452" />
<glyph unicode="&#x09;" horiz-adv-x="452" />
<glyph unicode="&#xa0;" horiz-adv-x="452" />
<glyph unicode="!" horiz-adv-x="475" d="M131 1584h212l-68 -1228h-75zM136 0v205h200v-205h-200z" />
<glyph unicode="&#x22;" horiz-adv-x="849" d="M198 1585h179l-58 -573h-63zM482 1585h179l-59 -573h-63z" />
<glyph unicode="#" horiz-adv-x="1159" d="M145 563v121h157l48 248h-156v121h180l106 532h154l-107 -532h182l107 532h155l-105 -532h129v-121h-153l-49 -248h153v-121h-177l-112 -563h-154l110 563h-183l-110 -563h-154l111 563h-132zM454 683h184l49 246h-184z" />
<glyph unicode="$" horiz-adv-x="792" d="M79 1058q0 287 241 314v212h113v-214q53 -9 91 -34q124 -80 124 -382v-65h-176v94q0 118 -22.5 176t-78.5 58t-84 -35t-28 -119q0 -131 123 -254l98 -91q190 -182 190 -399q0 -289 -224 -323v-217h-112v215q-111 13 -177.5 97.5t-66.5 290.5v101h179v-101 q0 -234 106 -234q59 0 84.5 38t25.5 132q0 146 -135 279q-10 10 -47 44.5t-48 46.5q-176 167 -176 370z" />
<glyph unicode="%" horiz-adv-x="1960" d="M140 908v320q0 210 61.5 293t218.5 83t218 -83t61 -293v-320q0 -214 -62 -299.5t-217 -85.5t-217.5 85.5t-62.5 299.5zM307 843q0 -99 24 -137t88.5 -38t88.5 38t24 137v447q0 97 -23.5 133t-89 36t-89 -36.5t-23.5 -132.5v-447zM587 0l637 1584h154l-630 -1584h-161z M1261 367v320q0 210 61 293t218 83t218.5 -83t61.5 -293v-320q0 -214 -62 -299.5t-217.5 -85.5t-217.5 85.5t-62 299.5zM1428 302q0 -99 24 -137t88.5 -38t88.5 38t24 137v447q0 97 -23.5 133t-89 36t-89 -36.5t-23.5 -132.5v-447z" />
<glyph unicode="&#x26;" horiz-adv-x="882" d="M59 321q0 162 71.5 280t180.5 245q-139 332 -139 447q0 152 71.5 231.5t208.5 79.5t197 -78.5t60 -219.5t-60.5 -248t-154.5 -226q51 -126 144 -333q78 146 167 252l79 -130q-76 -91 -169 -293q143 -314 148 -328h-165q-15 35 -71 156q-52 -84 -118.5 -129t-181.5 -45 t-191.5 88.5t-76.5 250.5zM229 312q0 -172 139 -172q54 0 94 44.5t87 136.5q-105 223 -168 366q-152 -203 -152 -375zM346 1297q0 -82 86 -309q132 168 132 312q0 92 -21 131t-81 39t-84 -32.5t-28 -66t-4 -74.5z" />
<glyph unicode="'" horiz-adv-x="371" d="M101 1585h177l-58 -573h-65z" />
<glyph unicode="(" horiz-adv-x="510" d="M118 282v970q0 180 37 263q38 84 147 105q49 9 126 10v-140q-64 0 -85.5 -15.5t-31 -59t-9.5 -169.5v-968q0 -199 31 -221.5t95 -22.5v-139q-142 1 -212 42q-97 59 -98 345z" />
<glyph unicode=")" horiz-adv-x="510" d="M83 34q63 0 84.5 16t31 59.5t9.5 168.5v968q0 199 -31 221.5t-94 22.5v140q95 0 150.5 -14t93.5 -57t52 -117t14 -199v-961q0 -125 -14 -199t-52 -117t-93.5 -57t-150.5 -14v139z" />
<glyph unicode="*" horiz-adv-x="864" d="M105 1332l73 125l208 -151l-26 248h144l-22 -245l204 154l73 -125l-232 -113l232 -120l-73 -126l-204 160l22 -250h-144l27 255l-204 -158l-72 126l225 113z" />
<glyph unicode="+" horiz-adv-x="727" d="M93 676v126h201v221h134v-221h205v-126h-205v-225h-134v225h-201z" />
<glyph unicode="," horiz-adv-x="415" d="M107 0v212h232v-204l-91 -318h-95l66 310h-112z" />
<glyph unicode="-" horiz-adv-x="626" d="M79 687v122h407v-122h-407z" />
<glyph unicode="." horiz-adv-x="478" d="M154 0v178h157v-178h-157z" />
<glyph unicode="/" horiz-adv-x="704" d="M78 0l395 1591h165l-396 -1591h-164z" />
<glyph unicode="0" horiz-adv-x="823" d="M91 428v756q0 211 66 315t252 104t253.5 -103.5t67.5 -315.5v-756q0 -219 -65.5 -333t-255 -114t-254 113t-64.5 334zM276 416q0 -214 53 -256q27 -21 65.5 -21t54.5 3q17 2 37 18q58 45 58 257v6v771q0 231 -98 248q-15 2 -43.5 2t-55.5 -10.5t-49 -63.5t-22 -175v-772 v-7z" />
<glyph unicode="1" horiz-adv-x="580" d="M42 1257v130q77 11 145.5 62t104.5 136h132v-1585h-186v1335q-30 -37 -86 -57.5t-110 -20.5z" />
<glyph unicode="2" d="M146 958v98q0 370 77 456q30 32 61 52q58 38 163 38q260 0 260 -438q0 -218 -112 -430q-50 -92 -100 -180q-127 -220 -158 -414h346v-140h-526v88q0 179 180 528q1 1 58.5 113t68.5 128q30 55 48.5 146.5t18.5 186t-13.5 155t-33.5 80t-47 19.5t-45 -11q-64 -40 -64 -268 v-207h-182z" />
<glyph unicode="3" horiz-adv-x="817" d="M103 427v70h180v-73q0 -168 22.5 -226t101.5 -58t106.5 66.5t27.5 238.5t-37.5 242t-132.5 70h-51v148h49q67 0 101 22q69 43 69 255v5q0 158 -35 207.5t-96.5 49.5t-90 -56.5t-28.5 -203.5v-37h-183v40q0 213 69.5 314t232.5 101t238.5 -103t75.5 -312q0 -293 -160 -353 q163 -74 163 -398q0 -231 -76.5 -342.5t-243 -111.5t-234.5 107t-68 338z" />
<glyph unicode="4" d="M86 299v130l352 1156h192v-1139h130v-147h-130v-300h-169v300h-375zM239 446h222v825z" />
<glyph unicode="5" d="M115 284v175h180v-175q0 -69 21.5 -107t73.5 -38t75 37.5t23 116.5v473q0 96 -21 141t-71 45q-104 0 -104 -168l-161 14v786h498v-167h-327v-370q31 63 155 63h3q61 0 109 -43q98 -88 98 -466q0 -293 -14 -364t-28 -113q-47 -142 -233 -142q-277 0 -277 302z" />
<glyph unicode="6" d="M96 464v667q0 257 72.5 364t242 107t228.5 -97.5t60 -326.5v-54h-179v30q0 213 -27 251t-94.5 38t-92 -62.5t-24.5 -244.5v-222q58 78 196 78t199.5 -109t61.5 -371v-96q0 -217 -66 -325.5t-250 -108.5q-223 0 -289 189q-38 110 -38 293zM282 434q0 -159 29.5 -225.5 t111.5 -66.5q54 0 81 22q52 40 52 232v120q0 180 -26 248.5t-102 68.5q-52 0 -93.5 -21.5t-52.5 -42.5v-335z" />
<glyph unicode="7" d="M102 1428v157h632v-135q-2 -14 -52.5 -157t-91.5 -291q-148 -508 -179 -1001h-199q37 492 216 1064q56 187 90.5 274.5t34.5 88.5h-451z" />
<glyph unicode="8" d="M93 482q0 96 36.5 210t100.5 157q-126 89 -126 361q0 208 69.5 300t234 92t232 -91.5t67.5 -300.5q0 -270 -128 -359q59 -44 95 -159.5t36 -246.5v-63q-4 -210 -75 -305t-229 -95t-233 94.5t-79 298.5q-1 11 -1 107zM279 392q1 -145 26 -199t92.5 -54t93 31.5t30 97 t4.5 128.5v60q0 160 -31 240.5t-86.5 80.5t-92 -82.5t-36.5 -240.5v-62zM290 1189.5q0 -210.5 54 -260.5q23 -23 60 -23t61.5 22.5t40.5 90.5t16 167.5t-7 150.5t-23 76t-35 32.5t-56 7.5t-61 -17q-50 -36 -50 -246.5z" />
<glyph unicode="9" d="M60 1084v41q0 185 26 269t58 122q73 86 223 86t216 -78.5t79 -241.5q6 -65 6 -162v-638q0 -322 -91 -423q-70 -77 -212 -77t-206.5 99t-67.5 323v58h176v-27q0 -219 30.5 -257t89.5 -38t77 49t18 200v246q-46 -38 -136 -38q-169 0 -227.5 121.5t-58.5 365.5zM244 1059 q0 -181 24 -247.5t108 -66.5t106 51v355q0 150 -17 203t-40.5 70.5t-60.5 17.5q-75 0 -97.5 -71t-22.5 -221v-91z" />
<glyph unicode=":" horiz-adv-x="499" d="M137 243v225h226v-225h-226zM137 951v225h226v-225h-226z" />
<glyph unicode=";" horiz-adv-x="504" d="M120 859v252h253v-252h-253zM129 254v227h256v-219l-102 -355h-112l77 347h-119z" />
<glyph unicode="&#x3c;" horiz-adv-x="657" d="M58 584v190l518 343v-198l-390 -239l390 -250v-192z" />
<glyph unicode="=" horiz-adv-x="649" d="M76 518v144h525v-144h-525zM76 803v142h525v-142h-525z" />
<glyph unicode="&#x3e;" horiz-adv-x="657" d="M78 238v198l390 238l-390 250v193l519 -346v-190z" />
<glyph unicode="?" horiz-adv-x="719" d="M126 1044v189q0 143 18 193q33 96 88 137t152 41q151 0 205 -88q37 -61 46 -144.5t9 -192t-7 -178.5q-16 -157 -75.5 -238t-185.5 -117v-201h-161v284q78 23 109.5 45t49 36t30.5 37q48 83 52 226q2 63 2 176t-11 154t-62.5 41t-63.5 -42.5t-12 -181.5v-176h-183zM218 1 v268h159v-268h-159z" />
<glyph unicode="@" horiz-adv-x="1265" d="M85 748q0 396 141.5 625.5t461.5 229.5q375 0 468 -460q28 -142 28 -304.5t-22 -267t-72 -168t-115 -63.5t-109.5 56.5t-60.5 135.5q-17 -94 -66.5 -150.5t-108.5 -56.5q-111 0 -186.5 92t-75.5 298.5t61 323t173 116.5q63 0 110 -35.5t76 -86.5l26 110h90v-501 q0 -89 14.5 -132.5t50.5 -43.5q87 0 87 313q0 215 -14 304.5t-32 140.5q-85 248 -334 248q-447 0 -447 -722q0 -363 98 -518.5t298 -155.5q129 3 175 25l20 -125q-128 -26 -199 -26q-263 0 -399.5 201t-136.5 597zM493 739q0 -281 138 -281q66 0 107.5 63t41.5 162v273 q-91 64 -154 64q-133 0 -133 -281z" />
<glyph unicode="A" horiz-adv-x="845" d="M59 0l241 1584h224l262 -1584h-176l-45 302h-287l-41 -302h-178zM299 454h243l-125 837h-3z" />
<glyph unicode="B" horiz-adv-x="856" d="M144 0v1584h286q179 0 243.5 -81.5t66.5 -274.5v-35q0 -139 -26 -219t-94 -116q146 -60 146 -381v-33q-3 -238 -72 -341t-240 -103h-310zM330 150h115q79 0 106.5 62t27.5 237v55q0 153 -25.5 214t-99.5 61h-124v-629zM330 922h106q54 0 77 18t32.5 70t9.5 171v44v5 q0 159 -55 188q-27 14 -78 14h-92v-510z" />
<glyph unicode="C" horiz-adv-x="826" d="M112 467v660q0 180 29.5 264.5t64.5 124.5q77 86 223 87q205 -1 265 -181q34 -104 34 -275v-176h-183v177q0 152 -16.5 205.5t-40 71t-59.5 17.5q-74 0 -102.5 -71t-28.5 -223v-685q0 -180 25.5 -251.5t99 -71.5t98 72t24.5 252v175h185v-174q0 -249 -68 -366.5 t-237 -117.5t-241 121t-72 365z" />
<glyph unicode="D" horiz-adv-x="854" d="M129 0v1584h298q181 0 249.5 -112t68.5 -318l1 -696q0 -244 -74.5 -351t-251.5 -107h-291zM314 150h96q54 0 84 22q66 47 66 257v729q0 149 -35 213.5t-115 64.5h-96v-1286z" />
<glyph unicode="E" horiz-adv-x="693" d="M130 0v1584h473v-155h-287v-542h272v-154h-272v-578h291v-155h-477z" />
<glyph unicode="F" horiz-adv-x="671" d="M129 0v1584h477v-156h-292v-500h274v-158h-274v-770h-185z" />
<glyph unicode="G" horiz-adv-x="847" d="M112 472v664q0 349 165 434q65 32 142 33q145 0 210 -61.5t84 -163t19 -246.5v-122h-180v206q0 121 -25 173.5t-97.5 52.5t-102 -66t-29.5 -232v-666q0 -190 26 -264t103 -74t105.5 76t28.5 266v206h-129v144h300v-832h-98l-26 122q-53 -137 -202.5 -137t-221.5 116.5 t-72 370.5z" />
<glyph unicode="H" horiz-adv-x="885" d="M130 0v1584h186v-664h254v664h186v-1584h-186v768h-254v-768h-186z" />
<glyph unicode="I" horiz-adv-x="474" d="M144 0v1584h186v-1584h-186z" />
<glyph unicode="J" horiz-adv-x="772" d="M74 350v207h182v-195q0 -121 10.5 -148t21.5 -43q22 -31 72 -31t71 33.5t25 82.5t4 120v1208h186v-1201q0 -402 -282 -402q-150 0 -220 91.5t-70 277.5z" />
<glyph unicode="K" horiz-adv-x="804" d="M130 0v1584h186v-755l282 755h187l-295 -782l316 -802h-195l-293 758v-758h-188z" />
<glyph unicode="L" horiz-adv-x="640" d="M130 0v1584h186v-1430h292v-154h-478z" />
<glyph unicode="M" horiz-adv-x="1166" d="M130 0v1584h232l227 -1302l215 1302h233v-1584h-166v635l15 593l-215 -1225h-168l-224 1225l15 -593v-635h-164z" />
<glyph unicode="N" horiz-adv-x="912" d="M130 0v1584h140l367 -1078l-19 458v620h165v-1584h-137l-355 1087l11 -399v-688h-172z" />
<glyph unicode="O" horiz-adv-x="849" d="M112 455v699q0 270 97 371q76 79 222 79q213 0 272 -175q35 -103 35 -275v-699q0 -247 -69.5 -360t-242.5 -113t-243.5 113.5t-70.5 359.5zM298 454q0 -181 25 -246.5t101.5 -65.5t102 66t25.5 246v711q0 152 -24.5 215.5t-98 63.5t-102.5 -65t-29 -213v-712z" />
<glyph unicode="P" horiz-adv-x="801" d="M130 0v1584h318q211 0 265 -175q34 -109 34 -256t-8 -221q-18 -162 -85.5 -236t-205.5 -74h-132v-622h-186zM316 777h113q79 0 105.5 69t26.5 260v31q0 163 -26 231t-101 68h-118v-659z" />
<glyph unicode="Q" horiz-adv-x="849" d="M112 455v699q0 270 97 371q76 79 222 79q213 0 272 -175q35 -103 35 -275v-699q0 -246 -69 -360q-41 -65 -115 -93l138 -160l-92 -84l-207 225q-147 10 -214 118t-67 354zM298 454q0 -181 25 -246.5t101.5 -65.5t102 66t25.5 246v711q0 152 -24.5 215.5t-98 63.5 t-102.5 -65t-29 -213v-712z" />
<glyph unicode="R" horiz-adv-x="857" d="M130 0v1584h332q141 0 203 -58.5t75 -198.5q5 -58 5 -180t-32 -204.5t-113 -107.5q60 -10 90.5 -62.5t43 -167.5t12.5 -341t14 -264h-185q-14 29 -14 534q0 170 -33.5 197.5t-100.5 27.5l-111 6v-765h-186zM316 902h119q54 0 79 20.5t36 79t11 183.5v11q0 183 -33 211.5 t-95 28.5h-117v-534z" />
<glyph unicode="S" horiz-adv-x="784" d="M95 1229q0 172 63.5 273.5t242.5 101.5q231 0 272 -222q18 -95 18 -240v-94h-178v107q0 151 -15.5 203t-38 69t-58.5 17q-67 0 -97 -49t-30 -146.5t27 -142.5t67 -86t44 -46l108 -114q195 -204 195 -456q0 -205 -63.5 -313.5t-241.5 -108.5q-216 0 -273 189 q-33 106 -33 278v9v154h180v-161q0 -174 25.5 -242t94 -68t94.5 32t30 98t4 147q0 165 -145 310l-103 104q-139 142 -172 262q-17 56 -17 135z" />
<glyph unicode="T" horiz-adv-x="573" d="M25 1429v155h523v-155h-163v-1429h-185v1429h-175z" />
<glyph unicode="U" horiz-adv-x="866" d="M121 407v1177h186v-1173q0 -158 13 -189t27 -49q26 -34 88 -34t91.5 37.5t32 112.5t2.5 121v1174h185v-1177q0 -223 -69.5 -324.5t-241.5 -101.5t-243 101.5t-71 324.5z" />
<glyph unicode="V" horiz-adv-x="828" d="M54 1584h177l106 -670l90 -590h3l78 590l91 670h176l-240 -1584h-217z" />
<glyph unicode="W" horiz-adv-x="1223" d="M58 1584h172l134 -1214l180 1214h153l184 -1214l114 1214h171l-187 -1584h-184l-169 1169l-180 -1169h-180z" />
<glyph unicode="X" horiz-adv-x="732" d="M50 0l226 839l-219 745h163l154 -527l136 527h168l-220 -813l227 -771h-162l-161 547l-142 -547h-170z" />
<glyph unicode="Y" horiz-adv-x="752" d="M18 1584h181l187 -648h4l163 648h182l-255 -919v-665h-187v665z" />
<glyph unicode="Z" horiz-adv-x="687" d="M104 0v161l326 1268h-297v155h490v-142l-327 -1287h320v-155h-512z" />
<glyph unicode="[" horiz-adv-x="687" d="M195 0v1585h374v-144h-188v-1297h188v-144h-374z" />
<glyph unicode="\" horiz-adv-x="781" d="M104 1585h163l369 -1585h-163z" />
<glyph unicode="]" horiz-adv-x="687" d="M149 0v144h189v1297h-189v144h374v-1585h-374z" />
<glyph unicode="^" horiz-adv-x="927" d="M129 519l217 831h234l217 -831h-181l-152 687l-154 -687h-181z" />
<glyph unicode="_" horiz-adv-x="673" d="M43 -41h586v-137h-586v137z" />
<glyph unicode="`" horiz-adv-x="585" d="M109 443v190l334 -175v-100z" />
<glyph unicode="a" horiz-adv-x="833" d="M113 346v132q0 116 63.5 198.5t350.5 187.5v104q0 174 -25 209t-85.5 35t-81.5 -53t-21 -191v-47h-184v38q0 245 77 326t218 81t204.5 -68.5t77.5 -219.5q7 -65 7 -159v-919h-186v117q-14 -49 -62.5 -89t-120.5 -40q-230 0 -232 358zM300 352q0 -118 20.5 -166t71 -48 t86.5 29t49 63v514q-113 -51 -151 -79t-57 -65.5t-19 -122.5v-125z" />
<glyph unicode="b" horiz-adv-x="843" d="M132 0v1601h185v-358q14 52 63.5 87.5t106.5 35.5q166 0 214 -164q32 -107 32 -266v-519q0 -251 -69 -349q-56 -80 -164 -80q-131 0 -183 125v-113h-185zM317 412q0 -146 24.5 -209.5t93.5 -63.5t90.5 63t21.5 215v543q0 134 -12 168.5t-28.5 58.5t-56.5 24t-61 -9 q-72 -32 -72 -243v-547z" />
<glyph unicode="c" horiz-adv-x="792" d="M112 455v452q0 176 26.5 257.5t59.5 118.5q73 83 214.5 83t203.5 -70q61 -70 75 -209q6 -59 7 -141v-94h-182v119q0 126 -10 165q-36 57 -87 72q-88 0 -109 -88q-13 -56 -13 -154v-574q0 -139 21 -194.5t81.5 -55.5t88.5 39t28 207v130h182v-87q0 -276 -73 -361.5 t-223 -85.5q-236 0 -276 252q-14 92 -14 219z" />
<glyph unicode="d" horiz-adv-x="844" d="M112 432v510q0 244 79 345q63 79 178 79q50 0 93 -29.5t65 -76.5v341h186v-1601h-186v113q-50 -125 -186 -125q-186 0 -219 246q-10 82 -10 198zM297 395q0 -198 52 -239q22 -17 61.5 -17t64.5 21q53 45 53 243v542q0 142 -23.5 204t-91.5 62t-92 -62.5t-24 -208.5v-545z " />
<glyph unicode="e" horiz-adv-x="803" d="M112 454v478q0 255 91 355q72 79 213 79q203 0 255 -175q29 -99 29 -268v-254h-403v-269q0 -176 28 -219t88 -43t80.5 50t21.5 109t1 100v109h181v-58q0 -215 -30.5 -301.5t-91.5 -124.5t-151.5 -38t-145 23t-86.5 60.5t-56 120.5t-24 266zM296 794h220v172 q0 144 -10.5 173.5t-26.5 52t-59 22.5q-81 0 -102.5 -68t-21.5 -187v-165z" />
<glyph unicode="f" horiz-adv-x="560" d="M64 1162v136h116v66q0 243 209 243q77 0 134 -19v-128q-36 5 -78.5 5t-61.5 -23t-19 -71v-73h159v-136h-159v-1162h-184v1162h-116z" />
<glyph unicode="g" horiz-adv-x="836" d="M107 -120l67 126q98 -66 208 -66q72 0 107.5 46t35.5 123v129q-25 -63 -68 -88q-45 -24 -111 -24q-135 0 -185.5 114.5t-50.5 306.5v387q0 432 250 432q127 0 165 -115v99h184v-1224q0 -241 -182 -309q-63 -23 -145 -23q-166 0 -275 86zM295 543q0 -143 26 -206.5 t98 -63.5q38 0 60 21q45 44 46 250v417q0 132 -24 191.5t-84 59.5t-84 -34t-31 -85.5t-7 -129.5v-420z" />
<glyph unicode="h" horiz-adv-x="872" d="M132 0v1601h185v-394q19 66 78 113t149.5 47t147.5 -73.5t57 -217.5v-1076h-185v1061q0 147 -110 147q-61 0 -99 -43t-38 -126v-1039h-185z" />
<glyph unicode="i" horiz-adv-x="452" d="M135 0v1350h185v-1350h-185zM135 1474v169h185v-169h-185z" />
<glyph unicode="j" horiz-adv-x="479" d="M67 -50h5q13 -2 26.5 -2t20.5 1q45 4 45 60v1341h184v-1332q0 -105 -43.5 -153.5t-105.5 -52.5q-20 -2 -69 -2t-63 10v130zM162 1474v169h185v-169h-185z" />
<glyph unicode="k" horiz-adv-x="779" d="M132 0v1601h185v-893l265 642h187l-285 -667l300 -683h-190l-277 657v-657h-185z" />
<glyph unicode="l" horiz-adv-x="450" d="M133 0v1601h185v-1601h-185z" />
<glyph unicode="m" horiz-adv-x="1288" d="M132 0v1350h185v-140q19 68 74.5 112.5t135.5 44.5q143 0 191 -137q34 63 93 100t136 37q107 0 163 -76.5t56 -224.5v-1066h-185v1071q0 137 -108 137q-122 0 -131 -125v-1083h-186v1072q0 136 -106 136q-65 0 -99 -42t-34 -115v-1051h-185z" />
<glyph unicode="n" horiz-adv-x="873" d="M132 0v1350h185v-143q18 66 78.5 113t151 47t147 -73.5t56.5 -217.5v-1076h-185v1076q0 68 -31.5 102t-87 34t-92.5 -38.5t-37 -115.5v-1058h-185z" />
<glyph unicode="o" horiz-adv-x="822" d="M112 446v478q0 329 151 410q61 32 142 32q211 0 270 -170q36 -107 36 -272v-478q0 -284 -76.5 -373t-221.5 -89q-211 0 -269 180q-32 103 -32 282zM297 395q0 -199 56 -240q22 -17 56 -17h3q71 0 92.5 67t21.5 190v566q0 193 -55 234q-23 17 -59 17q-73 0 -94 -65.5 t-21 -185.5v-566z" />
<glyph unicode="p" horiz-adv-x="844" d="M132 -247v1597h185v-112q25 62 76.5 93t108.5 31q161 0 204 -168q28 -104 28 -267v-489q0 -269 -68 -361.5t-192 -92.5q-49 0 -91.5 30.5t-65.5 75.5v-337h-185zM317 406q0 -143 24.5 -205t92.5 -62t91 63t23 211v546v17.5v15.5v13.5v11.5v10q0 69 -12 101q-12 35 -24 51 q-23 32 -67.5 32t-70.5 -17q-57 -38 -57 -235v-553z" />
<glyph unicode="q" horiz-adv-x="837" d="M112 432v495q0 254 66 353q55 81 164 82q134 0 184 -117v105h185v-1597h-185v341q-19 -47 -62 -78.5t-98.5 -31.5t-102.5 22q-87 43 -119 151.5t-32 274.5zM296 393q0 -162 25 -208t74.5 -46t74.5 18q56 39 56 235v553q0 143 -25.5 204.5t-93 61.5t-89.5 -61.5 t-22 -209.5v-547z" />
<glyph unicode="r" horiz-adv-x="585" d="M132 0v1350h186v-150q23 79 82 122.5t147 43.5q4 0 4 -117l-1 -39q-162 0 -232 -113v-1097h-186z" />
<glyph unicode="s" horiz-adv-x="724" d="M79 1048q0 161 75.5 239.5t215.5 78.5q94 0 154 -38q124 -82 124 -383v-65h-176v94q0 118 -22.5 176t-78.5 58t-84 -35t-28 -119q0 -132 123 -254l98 -91q190 -183 190 -399q0 -328 -288 -328q-146 0 -219 92.5t-73 298.5v101h179v-100q0 -234 106 -234q59 0 84.5 37.5 t25.5 131.5q0 146 -135 279q-10 10 -47 44.5t-48 46.5q-176 167 -176 369z" />
<glyph unicode="t" horiz-adv-x="550" d="M41 1202v137h124v245h184v-245h146v-137h-146v-985q0 -52 24.5 -65t123.5 -13v-147h-127q-128 0 -166.5 46.5t-38.5 162.5v1001h-124z" />
<glyph unicode="u" horiz-adv-x="871" d="M123 281v1069h185v-1048q0 -160 116 -160q65 0 97.5 45t32.5 119v1044h186v-1350h-186v138q-21 -69 -73.5 -112.5t-141.5 -43.5t-152.5 73.5t-63.5 225.5z" />
<glyph unicode="v" horiz-adv-x="677" d="M38 1350h172l97 -760l31 -302h18l26 302l87 760h171l-194 -1350h-216z" />
<glyph unicode="w" horiz-adv-x="1044" d="M46 1350h155l71 -752l20 -258h9l34 259l107 751h161l107 -731l37 -279h7l22 280l70 730h151l-163 -1350h-170l-136 1057l-162 -1057h-163z" />
<glyph unicode="x" horiz-adv-x="668" d="M23 0l227 696l-211 654h163l142 -431l126 431h167l-218 -661l227 -689h-172l-147 459l-136 -459h-168z" />
<glyph unicode="y" horiz-adv-x="711" d="M47 1350h179l97 -702l40 -365h16l35 365l88 702h178l-224 -1376q-16 -113 -41 -147t-56 -43.5t-80 -9.5h-181v140h64q94 0 104 21q8 10 8 39t-7 74z" />
<glyph unicode="z" horiz-adv-x="612" d="M68 0v138l297 1053h-274v159h465v-127l-298 -1065h283v-158h-473z" />
<glyph unicode="{" horiz-adv-x="718" d="M148 648v198q84 0 105 36.5t21 168.5v248q0 174 55 239t199 65h54v-150q-82 0 -103.5 -29t-21.5 -137v-221q0 -213 -37.5 -254.5t-111.5 -64.5q74 -23 100 -51.5t37.5 -81t11.5 -186.5v-221q0 -108 21.5 -137t103.5 -29v-150h-54q-144 0 -199 65t-55 239v248 q0 132 -21 168.5t-105 36.5z" />
<glyph unicode="|" horiz-adv-x="483" d="M158 -76v1765h177v-1765h-177z" />
<glyph unicode="}" horiz-adv-x="718" d="M148 41q82 0 104 29t22 137v221q0 213 37 254.5t112 64.5q-75 23 -100.5 51.5t-37 81t-11.5 186.5v221q0 108 -22 137t-104 29v150h54q144 0 199.5 -65t55.5 -239v-248q0 -132 21 -168.5t104 -36.5v-198q-83 0 -104 -36.5t-21 -168.5v-248q0 -174 -55.5 -239t-199.5 -65 h-54v150z" />
<glyph unicode="~" horiz-adv-x="1005" d="M100 818q71 203 207 203q51 0 188 -40q134 -39 150 -39h1q70 0 100 103l148 -38q-26 -103 -82 -180.5t-116.5 -77.5t-195 41.5t-182.5 41.5t-84 -84z" />
<glyph unicode="&#xa1;" horiz-adv-x="490" d="M157 -199l68 1228h75l69 -1228h-212zM164 1180v205h200v-205h-200z" />
<glyph unicode="&#xa2;" horiz-adv-x="709" d="M112 455v452q0 176 26.5 257.5t59.5 118.5q58 66 164 80v227h102v-226q101 -11 158 -74q76 -85 76 -344v-94h-182v119q0 126 -10 165q-36 57 -87 72q-88 0 -109 -88q-13 -56 -13 -154v-574q0 -139 21 -194.5t81.5 -55.5t88.5 39t28 207v130h182v-87q0 -276 -78 -367 q-55 -65 -156 -78v-211h-102v211q-121 16 -177 95q-44 63 -58.5 155t-14.5 219z" />
<glyph unicode="&#xa3;" d="M34 728v131h183q-61 225 -61 386q0 358 312 358q148 0 218.5 -88.5t70.5 -271.5v-122h-167v133q0 126 -32 167t-90 41q-141 0 -141 -215q0 -147 66 -388h315v-131h-280q14 -87 14 -157q0 -337 -175 -423h491v-148h-700v129q111 48 158 150t47 290q0 81 -15 159h-214z" />
<glyph unicode="&#xa4;" horiz-adv-x="1043" d="M112 593l82 82q-47 88 -47 193t47 192l-82 81l135 135l78 -79q87 49 196 49t196 -48l79 78l135 -134l-81 -81q48 -87 48 -193.5t-48 -194.5l81 -81l-135 -134l-80 79q-83 -47 -194.5 -47t-194.5 48l-80 -80zM302 867.5q0 -99.5 60.5 -167t158.5 -67.5t159 68.5t61 169 t-60 166t-158.5 65.5t-159.5 -67.5t-61 -167z" />
<glyph unicode="&#xa5;" horiz-adv-x="758" d="M18 1584h181l187 -648h4l163 648h182l-241 -866h193v-104h-207v-158h207v-104h-207v-352h-187v352h-217v104h217v158h-217v104h201z" />
<glyph unicode="&#xa6;" horiz-adv-x="477" d="M110 -106v727h177v-727h-177zM110 807v747h177v-747h-177z" />
<glyph unicode="&#xa7;" horiz-adv-x="724" d="M78 855q0 68 36 119.5t104 80.5q-62 56 -100.5 134t-38.5 149q0 120 80 193t208 73t204 -96.5t76 -253.5v-55h-175v77q0 104 -35.5 150.5t-86 46.5t-80 -36.5t-29.5 -90t40.5 -113t100.5 -109.5q288 -226 288 -404q0 -69 -43.5 -109t-99.5 -75q143 -121 143 -283 q0 -123 -79 -197t-211 -74t-211 83t-79 241v85h179v-83q0 -99 25 -147.5t89 -48.5q120 0 120 139v2v3q0 118 -84 202q-43 44 -131 109q-88 63 -126 99q-84 79 -84 189zM231 853q0 -43 47.5 -91.5t184.5 -155.5q66 45 66 101.5t-50.5 114t-173.5 145.5l-1 1q-73 -43 -73 -115 z" />
<glyph unicode="&#xa8;" horiz-adv-x="878" d="M118 376v160h207v-160h-207zM554 376v160h206v-160h-206z" />
<glyph unicode="&#xa9;" horiz-adv-x="1319" d="M76 775.5q0 165.5 77 301t212.5 213t301 77.5t301 -77.5t213 -213t77.5 -301t-77.5 -301t-213 -213t-301 -77.5t-301 77.5t-212.5 213t-77 301zM202 775.5q0 -72.5 18 -141t56.5 -129t92.5 -106t131 -72t167 -26.5t166.5 26.5t131 72.5t92 106.5t56 129t18.5 141t-18 141 t-56 129t-92 106t-131 72t-167 26.5t-166.5 -26.5t-131 -72.5t-92.5 -106.5t-56.5 -129t-18.5 -141zM474 565v415q0 95 42 144.5t142 49.5t144 -41t44 -147v-107h-112v97q0 64 -19.5 79t-41.5 15q-21 1 -32 -1q-54 -7 -54 -82v-433q0 -42 21 -57t55.5 -15t52.5 14.5t18 57.5 v134h116v-127q0 -90 -43.5 -134.5t-141 -44.5t-144.5 49.5t-47 133.5z" />
<glyph unicode="&#xaa;" horiz-adv-x="834" d="M181 630v106q0 90 48.5 156t242.5 139q34 13 40 16v61q0 127 -11 163q-16 53 -71.5 53t-72 -42t-16.5 -152v-40h-147v31q0 196 61 261t177 65q163 0 204 -133q25 -78 25 -225v-735h-148v90q-10 -35 -50 -67.5t-98 -32.5q-182 0 -184 286zM329 635q0 -94 17 -132.5 t57.5 -38.5t69 23t39.5 51v408q-63 -28 -92.5 -44t-53.5 -40.5t-30.5 -53t-6.5 -75.5v-98z" />
<glyph unicode="&#xab;" horiz-adv-x="1173" d="M74 591v164l430 244v-186l-281 -139l281 -147v-192zM558 591v164l430 244v-186l-281 -139l281 -147v-192z" />
<glyph unicode="&#xac;" horiz-adv-x="852" d="M87 716v165h627v-486h-172v321h-455z" />
<glyph unicode="&#xad;" horiz-adv-x="626" d="M81 516v151h464v-151h-464z" />
<glyph unicode="&#xae;" horiz-adv-x="1351" d="M85 775.5q0 165.5 77 301t212.5 213t301.5 77.5t301 -77.5t212.5 -213t77.5 -301t-77.5 -301t-212.5 -213t-301 -77.5t-301.5 77.5t-212.5 213t-77 301zM212 776q0 -236 166 -376q117 -98 298 -99q218 0 341 140t123 336q0 235 -166 375q-117 99 -298 99 q-262 0 -390 -205q-74 -119 -74 -270zM510 387v767h190q93 0 122 -42t29 -146v-25q0 -63 -9 -77.5t-22 -29.5t-57 -25q41 -3 61 -28q21 -25 21 -81v-313h-115v299q0 39 -19.5 58t-81.5 19v-376h-119zM630 850q41 0 63.5 5t34 21t13 33t1.5 68.5t-19.5 70t-92.5 18.5v-216z " />
<glyph unicode="&#xaf;" horiz-adv-x="626" d="M81 371v119h451v-119h-451z" />
<glyph unicode="&#xb0;" horiz-adv-x="823" d="M94 1142q0 146 95.5 223.5t222 77.5t222.5 -77.5t96 -223.5q0 -72 -27.5 -131t-72.5 -95q-93 -75 -218.5 -75t-221.5 77.5t-96 223.5zM233 1138q0 -57 26 -101q51 -87 153 -87h2q101 0 151 86q26 43 26 98q0 159 -141 196q-19 6 -38 6l-38 -6q-141 -37 -141 -192z" />
<glyph unicode="&#xb1;" horiz-adv-x="768" d="M116 689v126h202v222h133v-222h205v-126h-205v-225h-133v225h-202zM148 169v134h465v-134h-465z" />
<glyph unicode="&#xb2;" horiz-adv-x="761" d="M200 1136v70q0 221 35 292.5t100 90.5q36 11 86 12q191 0 191 -317q0 -159 -81 -314q-36 -66 -73 -131q-94 -163 -115 -296h255v-102h-395v60q0 73 100 297.5t131 262.5q48 89 48 235t-34 177q-14 14 -37.5 14t-39.5 -15q-38 -33 -38 -187v-149h-133z" />
<glyph unicode="&#xb3;" horiz-adv-x="781" d="M177 812v48h128v-48q0 -113 16.5 -152.5t70.5 -39.5t72 44t18 159.5t-26.5 162.5t-93.5 47h-26v102h25q46 1 70 14q51 28 51 149.5t-23 157.5t-67 36t-63 -37.5t-19 -136.5v-23h-129v25q0 143 49 211t162.5 68t166.5 -69.5t53 -209.5q0 -195 -108 -235q110 -48 110 -266 q0 -155 -54 -230t-170 -75t-164.5 72t-48.5 226z" />
<glyph unicode="&#xb4;" horiz-adv-x="585" d="M90 1660v100l377 156v-179z" />
<glyph unicode="&#xb6;" horiz-adv-x="1007" d="M122 1310q0 82 24 135t83 84q103 56 360 56h272v-1585h-160v1418h-129v-1418h-160v1022q-290 32 -290 288z" />
<glyph unicode="&#xb7;" horiz-adv-x="432" d="M133 692v187h180v-187h-180z" />
<glyph unicode="&#xb8;" horiz-adv-x="913" d="M316 -451q208 0 208 127q0 58 -42 96t-102 52l36 176h62l11 -130q182 -75 182 -227q0 -75 -69.5 -136.5t-180.5 -61.5q-51 0 -105 16v88z" />
<glyph unicode="&#xb9;" horiz-adv-x="564" d="M81 1349v91q59 6 114.5 45t76.5 98h96v-1145h-140v963q-54 -52 -147 -52z" />
<glyph unicode="&#xba;" horiz-adv-x="817" d="M180 710v382q0 263 122 328q49 26 116 26q173 0 217 -136q28 -86 28 -218v-382q0 -226 -61.5 -298.5t-177.5 -72.5q-170 0 -217 144q-27 85 -27 227zM329 669q0 -105 19.5 -155.5t75.5 -50.5q69 0 84 95q6 39 6 96v15v452q0 102 -18.5 152t-73.5 50t-74 -49.5t-19 -152.5 v-452z" />
<glyph unicode="&#xbb;" horiz-adv-x="1173" d="M155 335v192l281 147l-281 139v186l430 -244v-164zM639 335v192l281 147l-281 139v186l430 -244v-164z" />
<glyph unicode="&#xbc;" horiz-adv-x="1381" d="M86 1328v87q54 6 107 44t74 96h90v-1121h-132v946q-49 -52 -139 -52zM411 0l431 1591h138l-431 -1591h-138zM818 197v82l226 753h140v-740h81v-95h-81v-197h-113v197h-253zM925 292h146v543z" />
<glyph unicode="&#xbd;" horiz-adv-x="1458" d="M86 1328v87q54 6 107 44t74 96h90v-1121h-132v946q-49 -52 -139 -52zM411 0l431 1591h138l-431 -1591h-138zM983 681v70q0 217 34 287t97 89q36 11 85 11q185 0 185 -311q0 -156 -81 -309q-34 -66 -70 -129q-90 -159 -113 -291h250v-97h-384v58q0 48 52 179t105.5 241.5 t67.5 128.5q48 85 48 252.5t-72 167.5q-23 0 -39 -14q-36 -32 -36 -186v-147h-129z" />
<glyph unicode="&#xbe;" horiz-adv-x="1399" d="M107 806v45h119v-45q0 -112 15 -150.5t68 -38.5t71 44t18 156.5t-26 158.5t-90 46h-26v100h24q44 1 67 14q49 26 49 145t-22 155t-64.5 36t-61 -37.5t-18.5 -135.5v-22h-119v24q0 139 46 205t152.5 66t156 -67t49.5 -204q0 -190 -103 -229q106 -48 106 -260 q0 -150 -51 -222.5t-159 -72.5t-154.5 70t-46.5 219zM464 0l431 1591h138l-432 -1591h-137zM836 197v82l226 753h140v-740h81v-95h-81v-197h-113v197h-253zM943 292h146v543z" />
<glyph unicode="&#xbf;" horiz-adv-x="939" d="M188 166.5q0 108.5 7 178.5q16 157 75.5 238t185.5 117v201h161v-284q-78 -23 -109.5 -45t-49 -36t-30.5 -37q-48 -83 -52 -226q-2 -63 -2 -176t11 -154t62.5 -41t63.5 42.5t12 181.5v176h183v-189q0 -143 -18 -193q-33 -96 -88 -137t-152 -41q-151 0 -205 88 q-37 61 -46 144.5t-9 192zM455 1077v268h159v-268h-159z" />
<glyph unicode="&#xc0;" horiz-adv-x="845" d="M59 0l241 1584h224l262 -1584h-176l-45 302h-287l-41 -302h-178zM249 1757v190l334 -175v-100zM299 454h243l-125 837h-3z" />
<glyph unicode="&#xc1;" horiz-adv-x="845" d="M59 0l241 1584h224l262 -1584h-176l-45 302h-287l-41 -302h-178zM242 1707v100l377 156v-179zM299 454h243l-125 837h-3z" />
<glyph unicode="&#xc2;" horiz-adv-x="845" d="M59 0l241 1584h224l262 -1584h-176l-45 302h-287l-41 -302h-178zM171 1667l138 264h209l138 -264h-165l-78 184l-77 -184h-165zM299 454h243l-125 837h-3z" />
<glyph unicode="&#xc3;" horiz-adv-x="845" d="M59 0l241 1584h224l262 -1584h-176l-45 302h-287l-41 -302h-178zM131 1757q25 83 64.5 112.5t88.5 29.5t137.5 -33.5t107.5 -33.5h4q15 3 26.5 15t23.5 49l111 -25l-8 -33q-23 -86 -54.5 -115t-79 -29t-132.5 37t-110.5 37t-39.5 -3.5t-39 -51.5zM299 454h243l-125 837 h-3z" />
<glyph unicode="&#xc4;" horiz-adv-x="845" d="M59 0l241 1584h224l262 -1584h-176l-45 302h-287l-41 -302h-178zM92 1690v160h207v-160h-207zM299 454h243l-125 837h-3zM528 1690v160h206v-160h-206z" />
<glyph unicode="&#xc5;" horiz-adv-x="845" d="M59 0l241 1584h224l262 -1584h-176l-45 302h-287l-41 -302h-178zM232 1839q0 71 48 120t132 49t132 -49t48 -120t-48 -120t-132 -49t-132 49t-48 120zM299 454h243l-125 837h-3zM316 1839.5q0 -42.5 25.5 -73.5t71.5 -31t72 31t26 73.5t-26 73.5t-72 31t-71.5 -31 t-25.5 -73.5z" />
<glyph unicode="&#xc6;" horiz-adv-x="1085" d="M59 0l318 1584h617v-155h-271v-542h256v-156h-256v-576h275v-155h-462v302h-240l-58 -302h-179zM323 447h213v984l-23 -1z" />
<glyph unicode="&#xc7;" horiz-adv-x="826" d="M112 467v660q0 180 29.5 264.5t64.5 124.5q77 86 223 87q205 -1 265 -181q34 -104 34 -275v-176h-183v177q0 152 -16.5 205.5t-40 71t-59.5 17.5q-74 0 -102.5 -71t-28.5 -223v-685q0 -180 25.5 -251.5t99 -71.5t98 72t24.5 252v175h185v-174q0 -249 -68 -366.5 t-237 -117.5t-241 121t-72 365zM273 -451q208 0 208 127q0 58 -42 96t-102 52l36 176h62l11 -130q182 -75 182 -227q0 -75 -69.5 -136.5t-180.5 -61.5q-51 0 -105 16v88z" />
<glyph unicode="&#xc8;" horiz-adv-x="693" d="M130 0v1584h473v-155h-287v-542h272v-154h-272v-578h291v-155h-477zM211 1757v190l334 -175v-100z" />
<glyph unicode="&#xc9;" horiz-adv-x="693" d="M130 0v1584h473v-155h-287v-542h272v-154h-272v-578h291v-155h-477zM202 1707v100l377 156v-179z" />
<glyph unicode="&#xca;" horiz-adv-x="693" d="M130 0v1584h473v-155h-287v-542h272v-154h-272v-578h291v-155h-477zM130 1667l138 264h209l138 -264h-165l-78 184l-77 -184h-165z" />
<glyph unicode="&#xcb;" horiz-adv-x="693" d="M51 1690v160h207v-160h-207zM130 0v1584h473v-155h-287v-542h272v-154h-272v-578h291v-155h-477zM487 1690v160h206v-160h-206z" />
<glyph unicode="&#xcc;" horiz-adv-x="474" d="M74 1757v190l334 -175v-100zM144 0v1584h186v-1584h-186z" />
<glyph unicode="&#xcd;" horiz-adv-x="474" d="M67 1707v100l377 156v-179zM144 0v1584h186v-1584h-186z" />
<glyph unicode="&#xce;" horiz-adv-x="474" d="M-5 1667l138 264h209l138 -264h-165l-78 184l-77 -184h-165zM144 0v1584h186v-1584h-186z" />
<glyph unicode="&#xcf;" horiz-adv-x="474" d="M-84 1690v160h207v-160h-207zM144 0v1584h186v-1584h-186zM352 1690v160h206v-160h-206z" />
<glyph unicode="&#xd0;" horiz-adv-x="854" d="M48 781v122h407v-122h-407zM129 0v1584h298q181 0 249.5 -112t68.5 -318l1 -696q0 -244 -74.5 -351t-251.5 -107h-291zM314 150h96q54 0 84 22q66 47 66 257v729q0 149 -35 213.5t-115 64.5h-96v-1286z" />
<glyph unicode="&#xd1;" horiz-adv-x="912" d="M130 0v1584h140l367 -1078l-19 458v620h165v-1584h-137l-355 1087l11 -399v-688h-172zM174 1757q25 83 64.5 112.5t88.5 29.5t137.5 -33.5t107.5 -33.5h4q15 3 26.5 15t23.5 49l111 -25l-8 -33q-23 -86 -54.5 -115t-79 -29t-132.5 37t-110.5 37t-39.5 -3.5t-39 -51.5z " />
<glyph unicode="&#xd2;" horiz-adv-x="849" d="M112 455v699q0 270 97 371q76 79 222 79q213 0 272 -175q35 -103 35 -275v-699q0 -247 -69.5 -360t-242.5 -113t-243.5 113.5t-70.5 359.5zM261 1759v190l334 -175v-100zM298 454q0 -181 25 -246.5t101.5 -65.5t102 66t25.5 246v711q0 152 -24.5 215.5t-98 63.5 t-102.5 -65t-29 -213v-712z" />
<glyph unicode="&#xd3;" horiz-adv-x="849" d="M112 455v699q0 270 97 371q76 79 222 79q213 0 272 -175q35 -103 35 -275v-699q0 -247 -69.5 -360t-242.5 -113t-243.5 113.5t-70.5 359.5zM254 1709v100l377 156v-179zM298 454q0 -181 25 -246.5t101.5 -65.5t102 66t25.5 246v711q0 152 -24.5 215.5t-98 63.5 t-102.5 -65t-29 -213v-712z" />
<glyph unicode="&#xd4;" horiz-adv-x="849" d="M112 455v699q0 270 97 371q76 79 222 79q213 0 272 -175q35 -103 35 -275v-699q0 -247 -69.5 -360t-242.5 -113t-243.5 113.5t-70.5 359.5zM182 1669l138 264h209l138 -264h-165l-78 184l-77 -184h-165zM298 454q0 -181 25 -246.5t101.5 -65.5t102 66t25.5 246v711 q0 152 -24.5 215.5t-98 63.5t-102.5 -65t-29 -213v-712z" />
<glyph unicode="&#xd5;" horiz-adv-x="849" d="M112 455v699q0 270 97 371q76 79 222 79q213 0 272 -175q35 -103 35 -275v-699q0 -247 -69.5 -360t-242.5 -113t-243.5 113.5t-70.5 359.5zM143 1759q25 83 64.5 112.5t88.5 29.5t137.5 -33.5t107.5 -33.5h4q15 3 26.5 15t23.5 49l111 -25l-8 -33q-23 -86 -54.5 -115 t-79 -29t-132.5 37t-110.5 37t-39.5 -3.5t-39 -51.5zM298 454q0 -181 25 -246.5t101.5 -65.5t102 66t25.5 246v711q0 152 -24.5 215.5t-98 63.5t-102.5 -65t-29 -213v-712z" />
<glyph unicode="&#xd6;" horiz-adv-x="849" d="M104 1692v160h207v-160h-207zM112 455v699q0 270 97 371q76 79 222 79q213 0 272 -175q35 -103 35 -275v-699q0 -247 -69.5 -360t-242.5 -113t-243.5 113.5t-70.5 359.5zM298 454q0 -181 25 -246.5t101.5 -65.5t102 66t25.5 246v711q0 152 -24.5 215.5t-98 63.5 t-102.5 -65t-29 -213v-712zM540 1692v160h206v-160h-206z" />
<glyph unicode="&#xd7;" horiz-adv-x="639" d="M68 430l159 160l-159 159l90 93l162 -160l161 160l90 -93l-159 -159l159 -160l-90 -93l-161 160l-162 -160z" />
<glyph unicode="&#xd8;" horiz-adv-x="810" d="M68 -149l97 277q-53 113 -53 327v699q0 270 97 371q76 79 223.5 79t220.5 -85l70 196l96 -32l-104 -293q23 -90 23 -236v-699q0 -247 -69.5 -360t-241.5 -113q-121 0 -192 55l-78 -222zM298 507l253 719q-5 104 -24 155q-24 63 -97.5 63t-102.5 -65t-29 -213v-659z M311 251q6 -26 12 -44q25 -65 101.5 -65t102 66t25.5 246v475z" />
<glyph unicode="&#xd9;" horiz-adv-x="866" d="M121 407v1177h186v-1173q0 -158 13 -189t27 -49q26 -34 88 -34t91.5 37.5t32 112.5t2.5 121v1174h185v-1177q0 -223 -69.5 -324.5t-241.5 -101.5t-243 101.5t-71 324.5zM270 1756v190l334 -175v-100z" />
<glyph unicode="&#xda;" horiz-adv-x="866" d="M121 407v1177h186v-1173q0 -158 13 -189t27 -49q26 -34 88 -34t91.5 37.5t32 112.5t2.5 121v1174h185v-1177q0 -223 -69.5 -324.5t-241.5 -101.5t-243 101.5t-71 324.5zM270 1706v100l377 156v-179z" />
<glyph unicode="&#xdb;" horiz-adv-x="866" d="M121 407v1177h186v-1173q0 -158 13 -189t27 -49q26 -34 88 -34t91.5 37.5t32 112.5t2.5 121v1174h185v-1177q0 -223 -69.5 -324.5t-241.5 -101.5t-243 101.5t-71 324.5zM198 1666l138 264h209l138 -264h-165l-78 184l-77 -184h-165z" />
<glyph unicode="&#xdc;" horiz-adv-x="866" d="M120 1689v160h207v-160h-207zM121 407v1177h186v-1173q0 -158 13 -189t27 -49q26 -34 88 -34t91.5 37.5t32 112.5t2.5 121v1174h185v-1177q0 -223 -69.5 -324.5t-241.5 -101.5t-243 101.5t-71 324.5zM556 1689v160h206v-160h-206z" />
<glyph unicode="&#xdd;" horiz-adv-x="752" d="M18 1584h181l187 -648h4l163 648h182l-255 -919v-665h-187v665zM211 1707v100l377 156v-179z" />
<glyph unicode="&#xde;" horiz-adv-x="834" d="M146 0v1584h185v-235h133q144 0 215 -80q83 -95 83 -381v-21q-1 -306 -91 -408q-71 -79 -207 -79h-133v-380h-185zM331 535h115q79 0 105 70.5t26 262.5v27q0 165 -25.5 236t-102.5 71h-118v-667z" />
<glyph unicode="&#xdf;" horiz-adv-x="882" d="M130 0v1275q0 179 53 246q65 81 245 81q1 0 2 1q178 -1 248 -71t70 -257v-177q0 -112 -32 -166t-115 -82q115 -26 158 -104t43 -248v-70q0 -198 -33 -277.5t-96 -115t-174 -35.5h-94v151q139 0 172 32t38 79.5t5 93.5v234q0 102 -43.5 139t-163.5 37v151q87 0 121 30 t34 106v270q0 81 -28.5 111t-99.5 30t-99 -31t-28 -110v-1323h-183z" />
<glyph unicode="&#xe0;" horiz-adv-x="833" d="M113 346v132q0 116 63.5 198.5t350.5 187.5v104q0 174 -25 209t-85.5 35t-81.5 -53t-21 -191v-47h-184v38q0 245 77 326t218 81t204.5 -68.5t77.5 -219.5q7 -65 7 -159v-919h-186v117q-14 -49 -62.5 -89t-120.5 -40q-230 0 -232 358zM270 1523v190l334 -175v-100z M300 352q0 -118 20.5 -166t71 -48t86.5 29t49 63v514q-113 -51 -151 -79t-57 -65.5t-19 -122.5v-125z" />
<glyph unicode="&#xe1;" horiz-adv-x="833" d="M113 346v132q0 116 63.5 198.5t350.5 187.5v104q0 174 -25 209t-85.5 35t-81.5 -53t-21 -191v-47h-184v38q0 245 77 326t218 81t204.5 -68.5t77.5 -219.5q7 -65 7 -159v-919h-186v117q-14 -49 -62.5 -89t-120.5 -40q-230 0 -232 358zM263 1473v100l377 156v-179zM300 352 q0 -118 20.5 -166t71 -48t86.5 29t49 63v514q-113 -51 -151 -79t-57 -65.5t-19 -122.5v-125z" />
<glyph unicode="&#xe2;" horiz-adv-x="833" d="M113 346v132q0 116 63.5 198.5t350.5 187.5v104q0 174 -25 209t-85.5 35t-81.5 -53t-21 -191v-47h-184v38q0 245 77 326t218 81t204.5 -68.5t77.5 -219.5q7 -65 7 -159v-919h-186v117q-14 -49 -62.5 -89t-120.5 -40q-230 0 -232 358zM191 1433l138 264h209l138 -264h-165 l-78 184l-77 -184h-165zM300 352q0 -118 20.5 -166t71 -48t86.5 29t49 63v514q-113 -51 -151 -79t-57 -65.5t-19 -122.5v-125z" />
<glyph unicode="&#xe3;" horiz-adv-x="833" d="M113 346v132q0 116 63.5 198.5t350.5 187.5v104q0 174 -25 209t-85.5 35t-81.5 -53t-21 -191v-47h-184v38q0 245 77 326t218 81t204.5 -68.5t77.5 -219.5q7 -65 7 -159v-919h-186v117q-14 -49 -62.5 -89t-120.5 -40q-230 0 -232 358zM152 1523q25 83 64.5 112.5 t88.5 29.5t137.5 -33.5t107.5 -33.5h4q15 3 26.5 15t23.5 49l111 -25l-8 -33q-23 -86 -54.5 -115t-79 -29t-132.5 37t-110.5 37t-39.5 -3.5t-39 -51.5zM300 352q0 -118 20.5 -166t71 -48t86.5 29t49 63v514q-113 -51 -151 -79t-57 -65.5t-19 -122.5v-125z" />
<glyph unicode="&#xe4;" horiz-adv-x="833" d="M113 346v132q0 116 63.5 198.5t350.5 187.5v104q0 174 -25 209t-85.5 35t-81.5 -53t-21 -191v-47h-184v38q0 245 77 326t218 81t204.5 -68.5t77.5 -219.5q7 -65 7 -159v-919h-186v117q-14 -49 -62.5 -89t-120.5 -40q-230 0 -232 358zM113 1456v160h207v-160h-207z M300 352q0 -118 20.5 -166t71 -48t86.5 29t49 63v514q-113 -51 -151 -79t-57 -65.5t-19 -122.5v-125zM549 1456v160h206v-160h-206z" />
<glyph unicode="&#xe5;" horiz-adv-x="833" d="M113 346v132q0 116 63.5 198.5t350.5 187.5v104q0 174 -25 209t-85.5 35t-81.5 -53t-21 -191v-47h-184v38q0 245 77 326t218 81t204.5 -68.5t77.5 -219.5q7 -65 7 -159v-919h-186v117q-14 -49 -62.5 -89t-120.5 -40q-230 0 -232 358zM253 1605q0 71 48 120t132 49 t132 -49t48 -120t-48 -120t-132 -49t-132 49t-48 120zM300 352q0 -118 20.5 -166t71 -48t86.5 29t49 63v514q-113 -51 -151 -79t-57 -65.5t-19 -122.5v-125zM337 1605.5q0 -42.5 25.5 -73.5t71.5 -31t72 31t26 73.5t-26 73.5t-72 31t-71.5 -31t-25.5 -73.5z" />
<glyph unicode="&#xe6;" horiz-adv-x="1220" d="M113 351v132q1 79 23.5 134.5t84.5 99t120.5 71.5t185.5 78v91q0 152 -10 181q-13 28 -24 45q-20 28 -79 28q-1 0 -1 1q-58 0 -78 -52q-21 -52 -21 -191v-48h-184v38q0 245 77 326t221 81t194 -90q66 90 210 90q203 0 255 -175q29 -98 29 -307q0 -70 1 -117 q0 -95 -1 -101h-403v-255q0 -151 21.5 -212t83 -61t83 37.5t26.5 92.5t5 138v100h182v-54q0 -256 -45 -342.5t-126 -111.5q-47 -14 -111 -14q-167 0 -229 120q-34 -45 -102.5 -80.5t-136.5 -35.5q-125 0 -188 94t-63 269zM300 352q0 -118 20.5 -166t71 -48t86.5 29.5 t48 63.5v509q-149 -68 -183 -107.5t-38.5 -79t-4.5 -79.5v-122zM713 800h219v166q0 146 -10.5 174.5t-26 51t-55.5 22.5q-97 0 -116 -99q-11 -62 -11 -161v-154z" />
<glyph unicode="&#xe7;" horiz-adv-x="792" d="M112 455v452q0 176 26.5 257.5t59.5 118.5q73 83 214.5 83t203.5 -70q61 -70 75 -209q6 -59 7 -141v-94h-182v119q0 126 -10 165q-36 57 -87 72q-88 0 -109 -88q-13 -56 -13 -154v-574q0 -139 21 -194.5t81.5 -55.5t88.5 39t28 207v130h182v-87q0 -276 -73 -361.5 t-223 -85.5q-236 0 -276 252q-14 92 -14 219zM249 -451q208 0 208 127q0 58 -42 96t-102 52l36 176h62l11 -130q182 -75 182 -227q0 -75 -69.5 -136.5t-180.5 -61.5q-51 0 -105 16v88z" />
<glyph unicode="&#xe8;" horiz-adv-x="803" d="M112 454v478q0 255 91 355q72 79 213 79q203 0 255 -175q29 -99 29 -268v-254h-403v-269q0 -176 28 -219t88 -43t80.5 50t21.5 109t1 100v109h181v-58q0 -215 -30.5 -301.5t-91.5 -124.5t-151.5 -38t-145 23t-86.5 60.5t-56 120.5t-24 266zM248 1523v190l334 -175v-100z M296 794h220v172q0 144 -10.5 173.5t-26.5 52t-59 22.5q-81 0 -102.5 -68t-21.5 -187v-165z" />
<glyph unicode="&#xe9;" horiz-adv-x="803" d="M112 454v478q0 255 91 355q72 79 213 79q203 0 255 -175q29 -99 29 -268v-254h-403v-269q0 -176 28 -219t88 -43t80.5 50t21.5 109t1 100v109h181v-58q0 -215 -30.5 -301.5t-91.5 -124.5t-151.5 -38t-145 23t-86.5 60.5t-56 120.5t-24 266zM241 1473v100l377 156v-179z M296 794h220v172q0 144 -10.5 173.5t-26.5 52t-59 22.5q-81 0 -102.5 -68t-21.5 -187v-165z" />
<glyph unicode="&#xea;" horiz-adv-x="803" d="M112 454v478q0 255 91 355q72 79 213 79q203 0 255 -175q29 -99 29 -268v-254h-403v-269q0 -176 28 -219t88 -43t80.5 50t21.5 109t1 100v109h181v-58q0 -215 -30.5 -301.5t-91.5 -124.5t-151.5 -38t-145 23t-86.5 60.5t-56 120.5t-24 266zM169 1433l138 264h209 l138 -264h-165l-78 184l-77 -184h-165zM296 794h220v172q0 144 -10.5 173.5t-26.5 52t-59 22.5q-81 0 -102.5 -68t-21.5 -187v-165z" />
<glyph unicode="&#xeb;" horiz-adv-x="803" d="M90 1456v160h207v-160h-207zM112 454v478q0 255 91 355q72 79 213 79q203 0 255 -175q29 -99 29 -268v-254h-403v-269q0 -176 28 -219t88 -43t80.5 50t21.5 109t1 100v109h181v-58q0 -215 -30.5 -301.5t-91.5 -124.5t-151.5 -38t-145 23t-86.5 60.5t-56 120.5t-24 266z M296 794h220v172q0 144 -10.5 173.5t-26.5 52t-59 22.5q-81 0 -102.5 -68t-21.5 -187v-165zM526 1456v160h206v-160h-206z" />
<glyph unicode="&#xec;" horiz-adv-x="453" d="M57 1523v190l334 -175v-100zM134 0v1350h186v-1350h-186z" />
<glyph unicode="&#xed;" horiz-adv-x="453" d="M50 1473v100l377 156v-179zM134 0v1350h186v-1350h-186z" />
<glyph unicode="&#xee;" horiz-adv-x="453" d="M-22 1433l138 264h209l138 -264h-165l-78 184l-77 -184h-165zM134 0v1350h186v-1350h-186z" />
<glyph unicode="&#xef;" horiz-adv-x="453" d="M-101 1456v160h207v-160h-207zM134 0v1350h186v-1350h-186zM335 1456v160h206v-160h-206z" />
<glyph unicode="&#xf0;" horiz-adv-x="871" d="M94 416v98q0 259 65 368t220 109q114 0 172 -69q0 38 -10 175.5t-23 168.5l-196 -113l-53 106l187 109q-75 87 -202 104l60 130q193 -9 301 -144l180 104l53 -107l-170 -99q24 -50 43 -255t19 -283v-354q0 -186 -29 -271.5t-65 -124.5q-76 -86 -245.5 -86t-238 108.5 t-68.5 325.5zM280 396q0 -151 27.5 -202.5t108 -51.5t109.5 66t29 225v336q-11 22 -52 43.5t-93 21.5q-77 0 -103 -67.5t-26 -246.5v-124z" />
<glyph unicode="&#xf1;" horiz-adv-x="873" d="M132 0v1350h185v-143q18 66 78.5 113t151 47t147 -73.5t56.5 -217.5v-1076h-185v1076q0 68 -31.5 102t-87 34t-92.5 -38.5t-37 -115.5v-1058h-185zM154 1523q25 83 64.5 112.5t88.5 29.5t137.5 -33.5t107.5 -33.5h4q15 3 26.5 15t23.5 49l111 -25l-8 -33 q-23 -86 -54.5 -115t-79 -29t-132.5 37t-110.5 37t-39.5 -3.5t-39 -51.5z" />
<glyph unicode="&#xf2;" horiz-adv-x="822" d="M112 446v478q0 329 151 410q61 32 142 32q211 0 270 -170q36 -107 36 -272v-478q0 -284 -76.5 -373t-221.5 -89q-211 0 -269 180q-32 103 -32 282zM248 1523v190l334 -175v-100zM297 395q0 -199 56 -240q22 -17 56 -17h3q71 0 92.5 67t21.5 190v566q0 193 -55 234 q-23 17 -59 17q-73 0 -94 -65.5t-21 -185.5v-566z" />
<glyph unicode="&#xf3;" horiz-adv-x="822" d="M112 446v478q0 329 151 410q61 32 142 32q211 0 270 -170q36 -107 36 -272v-478q0 -284 -76.5 -373t-221.5 -89q-211 0 -269 180q-32 103 -32 282zM241 1473v100l377 156v-179zM297 395q0 -199 56 -240q22 -17 56 -17h3q71 0 92.5 67t21.5 190v566q0 193 -55 234 q-23 17 -59 17q-73 0 -94 -65.5t-21 -185.5v-566z" />
<glyph unicode="&#xf4;" horiz-adv-x="822" d="M112 446v478q0 329 151 410q61 32 142 32q211 0 270 -170q36 -107 36 -272v-478q0 -284 -76.5 -373t-221.5 -89q-211 0 -269 180q-32 103 -32 282zM169 1433l138 264h209l138 -264h-165l-78 184l-77 -184h-165zM297 395q0 -199 56 -240q22 -17 56 -17h3q71 0 92.5 67 t21.5 190v566q0 193 -55 234q-23 17 -59 17q-73 0 -94 -65.5t-21 -185.5v-566z" />
<glyph unicode="&#xf5;" horiz-adv-x="822" d="M112 446v478q0 329 151 410q61 32 142 32q211 0 270 -170q36 -107 36 -272v-478q0 -284 -76.5 -373t-221.5 -89q-211 0 -269 180q-32 103 -32 282zM129 1523q25 83 64.5 112.5t88.5 29.5t137.5 -33.5t107.5 -33.5h4q15 3 26.5 15t23.5 49l111 -25l-8 -33 q-23 -86 -54.5 -115t-79 -29t-132.5 37t-110.5 37t-39.5 -3.5t-39 -51.5zM297 395q0 -199 56 -240q22 -17 56 -17h3q71 0 92.5 67t21.5 190v566q0 193 -55 234q-23 17 -59 17q-73 0 -94 -65.5t-21 -185.5v-566z" />
<glyph unicode="&#xf6;" horiz-adv-x="822" d="M90 1456v160h207v-160h-207zM112 446v478q0 329 151 410q61 32 142 32q211 0 270 -170q36 -107 36 -272v-478q0 -284 -76.5 -373t-221.5 -89q-211 0 -269 180q-32 103 -32 282zM297 395q0 -199 56 -240q22 -17 56 -17h3q71 0 92.5 67t21.5 190v566q0 193 -55 234 q-23 17 -59 17q-73 0 -94 -65.5t-21 -185.5v-566zM526 1456v160h206v-160h-206z" />
<glyph unicode="&#xf7;" horiz-adv-x="723" d="M85 574v209h554v-209h-554zM228 213v269h268v-269h-268zM228 878v269h268v-269h-268z" />
<glyph unicode="&#xf8;" horiz-adv-x="791" d="M112 446v478q0 329 151 410q61 32 146 32t145 -29l46 168l91 -25l-57 -206q77 -101 77 -350v-478q0 -284 -76.5 -373t-221.5 -89q-78 0 -135 24l-46 -164l-90 26l55 195q-85 96 -85 381zM297 422l204 730q-41 50 -88 60q-74 0 -95 -65.5t-21 -185.5v-539zM328 184 q26 -46 90.5 -46t86 67t21.5 190v494z" />
<glyph unicode="&#xf9;" horiz-adv-x="871" d="M123 281v1069h185v-1048q0 -160 116 -160q65 0 97.5 45t32.5 119v1044h186v-1350h-186v138q-21 -69 -73.5 -112.5t-141.5 -43.5t-152.5 73.5t-63.5 225.5zM285 1523v190l334 -175v-100z" />
<glyph unicode="&#xfa;" horiz-adv-x="871" d="M123 281v1069h185v-1048q0 -160 116 -160q65 0 97.5 45t32.5 119v1044h186v-1350h-186v138q-21 -69 -73.5 -112.5t-141.5 -43.5t-152.5 73.5t-63.5 225.5zM278 1473v100l377 156v-179z" />
<glyph unicode="&#xfb;" horiz-adv-x="871" d="M123 281v1069h185v-1048q0 -160 116 -160q65 0 97.5 45t32.5 119v1044h186v-1350h-186v138q-21 -69 -73.5 -112.5t-141.5 -43.5t-152.5 73.5t-63.5 225.5zM207 1433l138 264h209l138 -264h-165l-78 184l-77 -184h-165z" />
<glyph unicode="&#xfc;" horiz-adv-x="871" d="M123 281v1069h185v-1048q0 -160 116 -160q65 0 97.5 45t32.5 119v1044h186v-1350h-186v138q-21 -69 -73.5 -112.5t-141.5 -43.5t-152.5 73.5t-63.5 225.5zM128 1456v160h207v-160h-207zM564 1456v160h206v-160h-206z" />
<glyph unicode="&#xfd;" horiz-adv-x="711" d="M47 1350h179l97 -702l40 -365h16l35 365l88 702h178l-224 -1376q-16 -113 -41 -147t-56 -43.5t-80 -9.5h-181v140h64q94 0 104 21q8 10 8 39t-7 74zM192 1473v100l377 156v-179z" />
<glyph unicode="&#xfe;" horiz-adv-x="845" d="M132 -247v1848h186v-363q25 62 75 93q52 31 109 31q161 0 204 -168q27 -104 27 -267v-489q0 -269 -68 -361.5t-192 -92.5q-48 0 -90 30.5t-65 75.5v-337h-186zM318 407q0 -144 24 -205.5t92.5 -61.5t90.5 62.5t22 211.5v544q0 161 -26 206.5t-77.5 45.5t-73 -21 t-37 -64.5t-15.5 -166.5v-551z" />
<glyph unicode="&#xff;" horiz-adv-x="711" d="M42 1456v160h207v-160h-207zM47 1350h179l97 -702l40 -365h16l35 365l88 702h178l-224 -1376q-16 -113 -41 -147t-56 -43.5t-80 -9.5h-181v140h64q94 0 104 21q8 10 8 39t-7 74zM478 1456v160h206v-160h-206z" />
<glyph unicode="&#x152;" horiz-adv-x="1092" d="M112 456v698q0 210 66 320t252 110h571v-155h-267v-542h252v-156h-252v-576h271v-155h-579q-175 0 -244.5 106t-69.5 350zM298 454q0 -178 24 -235.5t104 -58.5h122v1263h-118q-76 0 -104 -56.5t-28 -202.5v-710z" />
<glyph unicode="&#x153;" horiz-adv-x="1222" d="M112 447v477q0 328 154 410q61 32 150 32q131 0 208 -103q76 103 210 103q203 0 255 -175q29 -98 29 -307q0 -70 1 -117q0 -95 -1 -101h-403v-266q0 -176 27.5 -219t82.5 -43t77 37t27 92t5 146.5t-1 92.5h183v-54q0 -217 -30.5 -302.5t-91.5 -125.5t-167 -40 q-134 0 -207 102q-76 -102 -204 -102q-213 0 -270 180q-34 105 -34 283zM298 395q0 -199 57 -240q23 -17 56 -17h4q70 0 92 68t22 189v566q0 155 -30 203t-75 48q-83 0 -104.5 -67t-21.5 -184v-566zM716 800h218v166q0 145 -10 173.5t-25 51.5t-56 23q-96 0 -115 -97 q-12 -60 -12 -162v-155z" />
<glyph unicode="&#x178;" horiz-adv-x="752" d="M18 1584h181l187 -648h4l163 648h182l-255 -919v-665h-187v665zM60 1690v160h207v-160h-207zM496 1690v160h206v-160h-206z" />
<glyph unicode="&#x2c6;" horiz-adv-x="873" d="M194 1433l138 264h209l138 -264h-165l-78 184l-77 -184h-165z" />
<glyph unicode="&#x2dc;" horiz-adv-x="1005" d="M220 443q25 83 64.5 112.5t88.5 29.5t137.5 -33.5t107.5 -33.5h4q15 3 26.5 15t23.5 49l111 -25l-8 -33q-23 -86 -54.5 -115t-79 -29t-132.5 37t-110.5 37t-39.5 -3.5t-39 -51.5z" />
<glyph unicode="&#x2000;" horiz-adv-x="1004" />
<glyph unicode="&#x2001;" horiz-adv-x="2008" />
<glyph unicode="&#x2002;" horiz-adv-x="1004" />
<glyph unicode="&#x2003;" horiz-adv-x="2008" />
<glyph unicode="&#x2004;" horiz-adv-x="669" />
<glyph unicode="&#x2005;" horiz-adv-x="502" />
<glyph unicode="&#x2006;" horiz-adv-x="334" />
<glyph unicode="&#x2007;" horiz-adv-x="334" />
<glyph unicode="&#x2008;" horiz-adv-x="251" />
<glyph unicode="&#x2009;" horiz-adv-x="401" />
<glyph unicode="&#x200a;" horiz-adv-x="111" />
<glyph unicode="&#x2010;" horiz-adv-x="626" d="M79 687v122h407v-122h-407z" />
<glyph unicode="&#x2011;" horiz-adv-x="626" d="M79 687v122h407v-122h-407z" />
<glyph unicode="&#x2012;" horiz-adv-x="626" d="M79 687v122h407v-122h-407z" />
<glyph unicode="&#x2013;" horiz-adv-x="680" d="M108 458v209h464v-209h-464z" />
<glyph unicode="&#x2014;" horiz-adv-x="1037" d="M54 513v154h929v-154h-929z" />
<glyph unicode="&#x2018;" horiz-adv-x="531" d="M130 1004v208l111 389h116l-83 -381h134v-216h-278z" />
<glyph unicode="&#x2019;" horiz-adv-x="531" d="M144 1385v216h278v-208l-112 -389h-116l82 381h-132z" />
<glyph unicode="&#x201a;" horiz-adv-x="435" d="M87 0v209h272v-201l-103 -352h-119l77 344h-127z" />
<glyph unicode="&#x201c;" horiz-adv-x="927" d="M143 1030v202l103 369h119l-77 -361h127v-210h-272zM554 1030v202l103 369h119l-78 -361h127v-210h-271z" />
<glyph unicode="&#x201d;" horiz-adv-x="969" d="M156 1391v210h272v-201l-103 -370h-120l78 361h-127zM567 1391v210h272v-201l-104 -370h-119l77 361h-126z" />
<glyph unicode="&#x201e;" horiz-adv-x="914" d="M149 0v210h272v-202l-103 -369h-119l77 361h-127zM560 0v210h272v-202l-103 -369h-120l78 361h-127z" />
<glyph unicode="&#x2022;" horiz-adv-x="774" d="M177 666.5q0 111.5 54 172t156.5 60.5t156.5 -60.5t54 -172t-54 -171.5t-156.5 -60t-156.5 60t-54 171.5z" />
<glyph unicode="&#x202f;" horiz-adv-x="401" />
<glyph unicode="&#x2039;" horiz-adv-x="545" d="M63 591v164l430 244v-186l-281 -139l281 -147v-192z" />
<glyph unicode="&#x203a;" horiz-adv-x="654" d="M138 335v192l280 147l-280 139v186l430 -244v-164z" />
<glyph unicode="&#x205f;" horiz-adv-x="502" />
<glyph unicode="&#x20ac;" horiz-adv-x="968" d="M21 649v133h91v87h-91v126h91v132q0 180 29.5 264.5t64.5 124.5q77 86 223 87q205 -1 265 -181q34 -104 34 -275v-176h-183v177q0 152 -16.5 205.5t-40 71t-59.5 17.5q-74 0 -102.5 -71t-28.5 -223v-153h168v-126h-168v-87h168v-133h-168v-186q0 -180 25.5 -251.5 t99 -71.5t98 72t24.5 252v175h185v-174q0 -249 -68 -366.5t-237 -117.5t-241 121t-72 365v182h-91z" />
<glyph unicode="&#x2122;" horiz-adv-x="1383" d="M93 1472v113h385v-113h-120v-1044h-137v1044h-128zM595 428v1157h186l155 -940l149 940h187v-1157h-126v473l10 447l-152 -920h-135l-159 920l11 -447v-473h-126z" />
<glyph unicode="&#x25fc;" horiz-adv-x="1350" d="M0 0v1350h1350v-1350h-1350z" />
<glyph unicode="&#xfb01;" horiz-adv-x="1013" d="M64 1214v136h116v32q0 243 209 243q77 0 134 -19v-128q-36 5 -78.5 5t-61.5 -23t-19 -71v-39h516v-1350h-184v1214h-332v-1214h-184v1214h-116zM696 1450v170h184v-170h-184z" />
<glyph unicode="&#xfb02;" horiz-adv-x="1011" d="M64 1162v136h116v66q0 128 84.5 190t224.5 62q57 0 124 -10.5t265 -53.5v-1552h-184v1460q-86 18 -159 18q-171 0 -171 -107v-73h159v-136h-159v-1162h-184v1162h-116z" />
<glyph unicode="&#xfb03;" horiz-adv-x="1574" d="M64 1214v136h116v42q0 244 209 244q77 0 134 -19v-128q-36 5 -78.5 5t-61.5 -23t-19 -71v-50h377v42q0 244 209 244q77 0 134 -19v-128q-36 5 -78.5 5t-61.5 -23t-19 -71v-50h516v-1350h-185v1214h-331v-1214h-184v1214h-377v-1214h-184v1214h-116zM1256 1450v170h185 v-170h-185z" />
<glyph unicode="&#xfb04;" horiz-adv-x="1572" d="M64 1162v136h116v66q0 243 209 243q77 0 134 -19v-128q-36 5 -78.5 5t-61.5 -23t-19 -71v-73h377v66q0 128 84.5 190t223.5 62q58 0 125 -10.5t265 -53.5v-1552h-184v1460q-87 18 -160 18q-170 0 -170 -107v-73h159v-136h-159v-1162h-184v1162h-377v-1162h-184v1162h-116 z" />
</font>
</defs>
</svg>
